?

Log in

No account? Create an account
Sensorica
www.sensorica.com
Мне вдруг стало все равно.... 
30th-Jan-2006 06:05 am
Плевать на скептиков, на врагов, на весь этот чертов злобный мир.

Здесь то, что происходило со мной за последние 4 года (немало событий, надо заметить), здесь то, что создано с душой (вы это услышите, я уверен), здесь то, чего я никогда больше не сумею повторить...

Еще хочу сказать спасибо всем девушкам, которые так любезно предоставляли мне свои голоса для этого альбома... я на самом деле вас всех очень люблю...

sorry ссылки здесь больше не будет...

Sensorica :: Миры Грез

1. Introduction (00:00)
2. Breathe Of Cave (02:24)
3. Sunlight Again (07:32)
4. Searching The Way (13:08)
5. Welcome to Paradise (21:19)
6. Anomalye's Motion (29:00)
7. Step To Another Dimension (37:20)
8. Mental Experiment (41:44)
9. Ocean me (49:43)
10. Amira (58:50)

total time: 67 min 49 sec. size: 93 Mb. q: 192 kbps.

Просьба всем, кто скачает альбом, подарите его, пожалуйста, друзьям, знакомым или просто хорошим людям...
Comments 
11th-Jan-2006 05:42 pm (UTC)
Огромное спасибо. Я поделюсь им с друзьями.
11th-Jan-2006 06:32 pm (UTC)
вот что значит делать музыку от души и для души, огромное спасибо, после такого поступка обязательно куплю лицензионный CD :-) з.ы. вечеринка в киеве - просто бомба, хочу ещё, у группы сенсорика в киеве очень много поклонников ;-) ждём приезда, было б прикольней если полным составом :-)
11th-Jan-2006 07:17 pm (UTC)
альбом - просто супер, я летаю =)
11th-Jan-2006 07:33 pm (UTC)
Неописуемой красоты звук! =) спасибо вам огромное!
11th-Jan-2006 08:04 pm (UTC)
Ура! наконец-то! =)
спасибо огромное от чистого сердца
11th-Jan-2006 08:19 pm (UTC)
"весь этот чертов злобный мир"

хорошо сказано
11th-Jan-2006 09:26 pm (UTC)
большое спасибо, это чудесная, прекрасная музыка. спасибо. очень смелый поступок.

надеюсь, что никому не помешает cue-файл. опубликуйте его, если сочтёте нужным.

PERFORMER "Sensorica"
TITLE "Realms of Fancy"
FILE "Sensorica_-_Realms_of_Fancy_(album).mp3" MP3
TRACK 01 AUDIO
TITLE "Introduction"
INDEX 01 00:00:00
TRACK 02 AUDIO
TITLE "Breathe Of Cave"
INDEX 01 02:24:00
TRACK 03 AUDIO
TITLE "Sunlight Again"
INDEX 01 07:32:00
TRACK 04 AUDIO
TITLE "Searching The Way"
INDEX 01 13:08:00
TRACK 05 AUDIO
TITLE "Welcome to Paradise"
INDEX 01 21:19:00
TRACK 06 AUDIO
TITLE "Anomalye's Motion"
INDEX 01 29:00:00
TRACK 07 AUDIO
TITLE "Step To Anothen Dimension"
INDEX 01 37:20:00
TRACK 08 AUDIO
TITLE "Mental Experiment"
INDEX 01 41:44:00
TRACK 09 AUDIO
TITLE "Ocean me"
INDEX 01 49:43:00
TRACK 10 AUDIO
TITLE "Amira"
INDEX 01 58:50:00
11th-Jan-2006 09:43 pm (UTC)
1+
12th-Jan-2006 12:05 am (UTC)
Вааааааааууууууу! =) Очень ждала, спасибо!!!!!!!
12th-Jan-2006 07:56 am (UTC)
Превосходный альбом!
Он найдет…, да уж наверное нашел достойных слушателей. Согласна с вышесказанным Жжозовцем – обязательно куплю лицензионный диск. А как по другому? – если всё, что создается Александром идет из глубины его подсознания. И заметьте, очень богатый мир таиться в нем. Творческая работа, лишенная прагматизма и коммерции, воспринимается как целостное действие «Миров грёз». Ещё раз повторюсь – очень позитивный и воздушный альбом.
После такой неожиданной и оригинальной презентации «…..великих мне не понять видимо……»
Спасибо большое тебе, что создаешь такую удивительную музыку.
12th-Jan-2006 10:47 am (UTC) - Черт подери, у Шукаева есть ЖЖ О______о
Качать буду долго, но уверен, что это того стоит ) С Вашим творчеством я познакомился, когда игрался в "Код Доступа" и с тех пор заболел. Очень нравится Ваш стиль, он уникален, ну а ценится в этой жизни, как известно, то что повторить невозможно ) Спасибо и успехов в дальнейшей работе.
13th-Mar-2006 11:33 pm (UTC) - Re:
спасибо ))
12th-Jan-2006 04:50 pm (UTC)
СПАСИБО за альбом и правильное понимание ситуации на пиратской demoscene..
13th-Mar-2006 11:33 pm (UTC)
всегда пожалуйста :)
12th-Jan-2006 08:03 pm (UTC)
ну, держите сервак... я на трансаддикт выложил.
13th-Jan-2006 04:43 am (UTC)
Качать не стал, накладно выходит, но куплю обязательно! А как будет называться диск, как его вообще идентифицировать в магазинах!? С вашей музыкой я знаком только по играм.
13th-Mar-2006 11:34 pm (UTC)
скоро ищите в магазинах мп3-дискографию проекта Sensorica
13th-Jan-2006 06:53 am (UTC) - !! Риспект !!
Большое спасибо, качаю сейчас....
Как выкачаю писану еще.
13th-Jan-2006 08:35 am (UTC) - Re: !! Риспект !!
Sunlight Again - обалденный звук. Чистый и прозрачный. Нет слов, сведение супер. Можно сказать эксклюзивный звук Sensorica. Начиная с 10.20 обалденная панорама )) Ну вы даете, СУПЕР нет слов !!!
Звук _ О Б А Л Д Е Н Н Ы Й !!! Творите, удачи вам. Альбом получился очень сильный....
13th-Jan-2006 12:55 pm (UTC)
всем большое спасибо за отзывы, за потраченое время и т.д. :) вот :)
14th-Jan-2006 05:32 pm (UTC)
Большое спасибо !!!
13th-Mar-2006 11:34 pm (UTC)
вам спасибо )
Page 2 of 6
<<[1] [2] [3] [4] [5] [6] >>
This page was loaded Jul 16th 2019, 1:10 pm GMT.